Impossible de lire en stream une vidéo mp4 via le navigateur

Tous les problèmes de Windows : message d'erreur, BSOD et écran bleu, erreur Windows Update ou d'installation, etc

Modérateur : Mods Windows

Clinquart
Messages : 174
Inscription : 17 janv. 2008 10:54
Localisation : France

Impossible de lire en stream une vidéo mp4 via le navigateur

par Clinquart »

Bonjour,

Je cherche à mettre une vidéo mp4 en ligne sur mon site web :
http://www.cassiusclaycommunication.com ... ns2015.mp4

C'est un mp4 que j'ai créé via FormatFactory à partir d'un fichier source AVI afin que la vidéo (qui est lourde) puisse être lue par le visiteur avant la fin de son chargement. Sur le bureau de Windows 7, le fichier se lit sans problème. Sur le site, au contraire, impossible de la lire, alors que j'y ai d'autres fichiers mp4 qui se lisent sans souci. Exemple : http://www.cassiusclaycommunication.com ... ionweb.mp4

Je suppose donc que le problème ne vient pas du site mais de l'encodage.
Quelqu'un saurait-il m'expliquer l'origine du problème et m'aider ?

En vous en remerciant d'avance.
Amicalement.

Régis
Avatar de l’utilisateur
angelique
Messages : 31148
Inscription : 28 févr. 2008 13:58
Localisation : Breizhilienne

Re: mp4 impossible à lire une fois mis en ligne

par angelique »

mp4 , avi, mkv sont des conteneurs, plusieurs codecs peuvent être utilisés, h264, xvid etc...

Tes videos n'ont pas les mêmes codecs ç'est peut être la source de ton probleme ou le fichier est peut être corrompu

avec VLC , je stream bien tes 2 mp4 , par contre en passant par un navigateur sans le plugin vlc http://www.cassiusclaycommunication.com ... ns2015.mp4 est corrompu.

JeuxAfricains2015.mp4 :

major_brand : isom
minor_version : 1
compatible_brands: isom
creation_time : 2015-09-21 22:08:45
encoder : FormatFactory : http://www.pcfreetime.com
Duration: 00:51:13.83, start: 0.000000, bitrate: 449 kb/s
Stream #0:0(und): Video: mpeg4 (Simple Profile) (mp4v / 0x7634706D), yuv420p, 432x240 [SAR 1:1 DAR 9:5], 382 kb/s, 18 fps, 18 tbr, 18k tbn, 18 tbc
Metadata:
creation_time : 2015-09-21 22:08:45
handler_name : video
Stream #0:1(und): Audio: aac (mp4a / 0x6134706D), 22050 Hz, stereo, s16, 65 kb/s



------------------------------

Francophonie2014_versionweb.mp4 :

Metadata:
major_brand : isom
minor_version : 1
compatible_brands: isomavc1
creation_time : 2015-01-22 11:49:01
encoder : FormatFactory : http://www.pcfreetime.com
Duration: 00:50:14.79, start: 0.000000, bitrate: 355 kb/s
Stream #0:0(und): Video: h264 (High) (avc1 / 0x31637661), yuv420p, 432x240 [SAR 80:81 DAR 16:9], 287 kb/s, SAR 71:72 DAR 71:40, 24 fps, 24 tbr, 24k tbn, 48 tbc
Metadata:
creation_time : 2015-01-22 11:49:01
handler_name : video
Stream #0:1(und): Audio: aac (mp4a / 0x6134706D), 22050 Hz, stereo, s16, 66 kb/s
Avec Gnu_Linux t'as un Noyau ... avec Ѡindows t'as que les pépins
https://helicium.altervista.org/
Supprimer les "virus" gratuitement http://www.supprimer-trojan.com/
Ne soyez pas Rat!Je fais parti des millions de pauvres en France
Image
Avatar de l’utilisateur
angelique
Messages : 31148
Inscription : 28 févr. 2008 13:58
Localisation : Breizhilienne

Re: mp4 impossible à lire une fois mis en ligne

par angelique »

sympa , je me suis dis je vais réencoder ta video lol

Input #0, mov,mp4,m4a,3gp,3g2,mj2, from 'JeuxAfricains.mp4':
Metadata:
major_brand : mp42
minor_version : 0
compatible_brands: mp42isomavc1
creation_time : 2015-09-22 12:09:05
encoder : HandBrake rev20121007 2014022799
Duration: 00:51:13.77, start: 0.000000, bitrate: 747 kb/s
Stream #0:0(und): Video: h264 (High) (avc1 / 0x31637661), yuv420p, 432x224 [SAR 1:1 DAR 27:14], 439 kb/s, 18 fps, 18 tbr, 90k tbn, 180k tbc
Metadata:
creation_time : 2015-09-22 12:09:05
Stream #0:1(und): Audio: aac (mp4a / 0x6134706D), 22050 Hz, stereo, s16, 144 kb/s
Metadata:
creation_time : 2015-09-22 12:09:05
Stream #0:2(und): Audio: ac3 (ac-3 / 0x332D6361), 32000 Hz, mono, s16, 160 k


Je la met sur mon server , VLC la stream tres bien , mais impossible direct via le navigateur

http://angelik.altervista.org/angelique ... icains.mp4


Donc là je sais pas lol
Avec Gnu_Linux t'as un Noyau ... avec Ѡindows t'as que les pépins
https://helicium.altervista.org/
Supprimer les "virus" gratuitement http://www.supprimer-trojan.com/
Ne soyez pas Rat!Je fais parti des millions de pauvres en France
Image
Clinquart
Messages : 174
Inscription : 17 janv. 2008 10:54
Localisation : France

Re: Impossible de lire en stream une vidéo mp4 via le naviga

par Clinquart »

Bonsoir Angélique,
Merci pour ces premières réponses.
Je ne suis clairement pas un pro de l'encodage.
Quel codec devrais-je utiliser selon vous pour une lecture facile directement via les navigateurs ?
Sinon, j'ai aussi le fichier source en .avi, que je peux vous fournir... Mais c'est déjà une conversion car j'ai dû extraire la séquence qui m'intéressait d'un 1er fichier bien plus long.
Et j'aimerais autant apprendre pour savoir faire moi-même à l'avenir :-)
Avatar de l’utilisateur
angelique
Messages : 31148
Inscription : 28 févr. 2008 13:58
Localisation : Breizhilienne

Re: Impossible de lire en stream une vidéo mp4 via le naviga

par angelique »

c'est pas le codec ou l'encapsuleur le probleme, c'est ton fichier source.
Sinon, j'ai aussi le fichier source en .avi, que je peux vous fournir... Mais c'est déjà une conversion car j'ai dû extraire la séquence qui m'intéressait d'un 1er fichier bien plus long.
jutilise ffmpeg, handbrake, avidemux etc.... sous Debian GNU_LInux, sous ѡindows y'a des equivalents:

tjrs trouver des equivalents zip sans install sur une source normalement propre:

Avidemux:
------------
http://sourceforge.net/projects/avidemu ... mux/2.5.6/

VirtualDub:
-------------

http://virtualdub.sourceforge.net/

tu trouves facilement des tutos sur le net et ces outils sont puissants et franchement pas compliqué apres un peu de prise en main.

sur google ➫ tuto avidemux ou tuto vdub


Si tu as le fichier sourçe, tu peux travailler dessus ( l'héberger si tu veux voir si effectivement ce n'est pas lui qui est corrompu que je regarde quand j'aurais le temps -- ça prend du temps les conversions avec mon matos de y'a 10 ans lol )
Avec Gnu_Linux t'as un Noyau ... avec Ѡindows t'as que les pépins
https://helicium.altervista.org/
Supprimer les "virus" gratuitement http://www.supprimer-trojan.com/
Ne soyez pas Rat!Je fais parti des millions de pauvres en France
Image
Clinquart
Messages : 174
Inscription : 17 janv. 2008 10:54
Localisation : France

Re: Impossible de lire en stream une vidéo mp4 via le naviga

par Clinquart »

Bonjour Angélique,
Apparemment ce n'était pas le fichier source, je l'ai réencodé en AVC et maintenant cela fonctionne.
Et c'est tant mieux car je me voyais mal apprendre ENCORE un logiciel en plus de VLC (qui déconne avec les mp4 qu'il me sort sans son), FormatFactory et d'autres (et j'ai d'ailleurs Virtualdub avec lequel j'ai eu des sioucis et que je n'utilise pas).
J'ai le même souci avec un autre fichier, je vais voir si cela fonctionne de même (je dois d'abord le cropper), si oui j'indiquerai le sujet comme résolu.
Merci et bonne journée.

Régis
  • Sujets similaires
    Réponses
    Vues
    Dernier message

Revenir à « Windows : Résoudre les problèmes »